Братство: Взлет геймеров / Rise of the Fellowship (Рон Ньюком) [2013, фэнтези, комедия, приключения, HDTVRip-AVC] DVO

Братство: Взлет геймеров / Rise of the Fellowship (Рон Ньюком) [2013, фэнтези, комедия, приключения, HDTVRip-AVC] DVO
Братство: Взлет геймеров / Rise of the Fellowship
Перевод: Профессиональный (двухголосый)[НТВ+], cубтитры: отсутствуют
Формат: HDTVRip-AVC, MKV, H.264, AC3
Страна: США
Режиссер: Рон Ньюком
Жанр: фэнтези, комедия, приключения
Продолжительность: 01:34:05
Год выпуска: 2013
В ролях: Джастин Мо, Джейми Белл, Коул Мэтсон, Эмма Эрнест, Вульф Дж. Шерилл, Эрик Гарнер, Даг Хендерсон, Дрю Трементоззи
Описание: Рэндалл Дули работает в магазине компьютерных игр и все свое свободное время тратит на онлайн-игры. Старший брат постоянно над ним подшучивает, мама его не понимает, к тому же он безнадежно влюблен в капитаншу команды чирлидеров. Однажды Рэндалл узнает, что во Флориде пройдет чемпионат по игре "Властелин колец". Он едет туда с твердым намерением победить.
Видео: 1024x448 (2.25:1), 25.000 fps, AVC (H.264), ~1810 kbps, 0.158 bit/pixel
Аудио: 48 kHz, AC3 Dolby Digital, 2/0 (L,R) ch, ~256 kbps
General
Unique ID : 249332367878084282945173949441441573124 (0xBB93AAD6CDA29925BAF9C072D264A904)
Complete name : E:ВременнаяBratstvo.vzlet.gejmerov.2013.mkv
Format : Matroska
Format version : Version 2
File size : 1.36 GiB
Duration : 1h 34mn
Overall bit rate : 2 068 Kbps
Encoded date : UTC 2013-10-17 15:08:33
Writing application : mkvmerge v5.4.0 ('Piper') built on Mar 10 2012 13:34:39
Writing library : libebml v1.2.3 + libmatroska v1.3.0
Video
ID : 1
Format : AVC
Format/Info : Advanced Video Codec
Format profile :
Format settings, CABAC : Yes
Format settings, ReFrames : 9 frames
Codec ID : V_MPEG4/ISO/AVC
Duration : 1h 34mn
Bit rate : 1 810 Kbps
Width : 1 024 pixels
Height : 448 pixels
Display aspect ratio : 2.25:1
Frame rate mode : Constant
Frame rate : 25.000 fps
Color space : YUV
Chroma subsampling : 4:2:0
Bit depth : 8 bits
Scan type : Progressive
Bits/(Pixel*Frame) : 0.158
Stream size : 1.16 GiB (86%)
Writing library : x264 core 125 r2208 d9d2288
Encoding settings : cabac=1 / ref=9 / deblock=1:-2:-2 / analyse=0x3:0x133 / me=umh / subme=10 / psy=1 / psy_rd=1.00:0.15 / mixed_ref=1 / me_range=32 / chroma_me=1 / trellis=2 / 8x8dct=1 / cqm=0 / deadzone=21,11 / fast_pskip=0 / chroma_qp_offset=-3 / threads=6 / lookahead_threads=1 / sliced_threads=0 / nr=0 / decimate=0 / interlaced=0 / bluray_compat=0 / constrained_intra=0 / bframes=8 / b_pyramid=2 / b_adapt=2 / b_bias=0 / direct=3 / weightb=1 / open_gop=0 / weightp=2 / keyint=250 / keyint_min=25 / scenecut=40 / intra_refresh=0 / rc=2pass / mbtree=0 / bitrate=1810 / ratetol=1.0 / qcomp=0.60 / qpmin=0 / qpmax=69 / qpstep=4 / cplxblur=20.0 / qblur=0.5 / ip_ratio=1.40 / pb_ratio=1.30 / aq=1:0.80
Default : Yes
Forced : No
Audio
ID : 2
Format : AC-3
Format/Info : Audio Coding 3
Mode extension : CM (complete main)
Format settings, Endianness : Big
Codec ID : A_AC3
Duration : 1h 34mn
Bit rate mode : Constant
Bit rate : 256 Kbps
Channel(s) : 2 channels
Channel positions : Front: L R
Sampling rate : 48.0 KHz
Bit depth : 16 bits
Compression mode : Lossy
Stream size : 172 MiB (12%)
Language : Russian
Default : Yes
Forced : No
Жанр: Боевики
Скачать торрент: Братство: Взлет геймеров / Rise of the Fellowship (Рон Ньюком) [2013, фэнтези, комедия, приключения, HDTVRip-AVC] DVO (14.21 Kb), скачали: 18
Сиды: 76 
Пиры: 38 
Общий размер: 1.36 Gb
SHA Hash: c2c30d587c5cffe15b044872edbdd3c319d00b82
Bratstvo.vzlet.gejmerov.2013.mkv 1.36 Gb / (1459017295) bytes