Звездная карта / Maps to the Stars (Дэвид Кроненберг) [2014, драма, BDRip-AVC] MVO

Звездная карта / Maps to the Stars (Дэвид Кроненберг) [2014, драма, BDRip-AVC] MVO
Звездная карта / Maps to the Stars
Перевод: Профессиональный (многоголосый, закадровый) лицензия
Субтитры: Русские, английские
Формат: BDRip-AVC, MKV, H.264, AC3
Страна: Канада, США, Германия, Франция
Режиссер: Дэвид Кроненберг
Жанр: драма
Продолжительность: 01:47:17
Год выпуска: 2014
В ролях: Джулианна Мур, Миа Васиковска, Оливия Уильямс, Эван Бёрд, Сара Гадон, Нив Уилсон, Доун Гринхалг, Джон Кьюсак, Роберт Паттинсон, Кьяра Гласко
Описание: Место действия — два голливудских дома. В одном живет стареющая актриса, которая надеется сыграть роль собственной давно погибшей матери — легенды черно-белого кино. Другой особняк — резиденция сверхуспешного психотерапевта, его жены и их сына — 13-летнего миллионера, наркомана и звезды. В оба дома проникает девушка из Флориды, которая подружилась в твиттере с Кэрри Фишер и надеется с ее помощью покорить Лос-Анджелес.
Видео: 1032x558 (1.85:1), 25 fps, AVC MPEG-4 (H.264), ~2013 kbps, 0.140 bit/pixel
Аудио #1: Русский: 48 kHz, AC3 Dolby Digital, 6 ch, ~448 kbps [Профессиональный (многоголосый, закадровый)]
Аудио #2: Английский: 48 kHz, AC3 Dolby Digital, 6 ch, ~448 kbps [Оригинал]
Общее
Уникальный идентификатор : 184375056526849179093042521840043518733 (0x8AB5581FDF02350BA9A5C99D7D316B0D)
Полное имя : E:Zvyozdnaya.Karta.DUAL.BDRip.x264.-HELLYWOOD.mkv
Формат : Matroska
Размер файла : 2,18 Гбайт
Продолжительность : 1 ч. 47 м.
Общий поток : 2911 Кбит/сек
Название фильма : Maps to the stars (2014) - HELLYWOOD
Дата кодирования : UTC 2015-03-10 17:18:32
Программа кодирования : mkvmerge v5.9.0 ('On The Loose') built on Dec 15 2012 16:39:58
Библиотека кодирования : libebml v1.3.0 + libmatroska v1.4.0
Видео
Идентификатор : 1
Формат : AVC
Формат/Информация : Advanced Video Codec
Профиль формата :
Параметр CABAC формата : Да
Параметр ReFrames формата : 10 кадров
Идентификатор кодека : V_MPEG4/ISO/AVC
Продолжительность : 1 ч. 47 м.
Битрейт : 2013 Кбит/сек
Ширина : 1032 пикс.
Высота : 558 пикс.
Соотношение сторон : 16:9
Частота кадров : 25,000 кадр/сек
Цветовое пространство : YUV
Подвыборка цветности : 4:2:0
Битовая глубина : 8 бит
Тип развёртки : Прогрессивная
Бит/(Пиксели*Кадры) : 0.140
Размер потока : 1,47 Гбайт (67%)
Заголовок : potroks
Библиотека кодирования : x264 core 130 r2273 b3065e6
Настройки программы : cabac=1 / ref=10 / deblock=1:-3:-3 / analyse=0x3:0x133 / me=umh / subme=11 / psy=1 / psy_rd=0.96:0.00 / mixed_ref=1 / me_range=48 / chroma_me=1 / trellis=2 / 8x8dct=1 / cqm=0 / deadzone=21,11 / fast_pskip=0 / chroma_qp_offset=-2 / threads=9 / lookahead_threads=6 / sliced_threads=0 / nr=0 / decimate=0 / interlaced=0 / bluray_compat=0 / constrained_intra=0 / bframes=11 / b_pyramid=2 / b_adapt=2 / b_bias=0 / direct=3 / weightb=1 / open_gop=0 / weightp=2 / keyint=250 / keyint_min=23 / scenecut=40 / intra_refresh=0 / rc_lookahead=60 / rc=2pass / mbtree=0 / bitrate=2013 / ratetol=1.0 / qcomp=0.70 / qpmin=0 / qpmax=69 / qpstep=4 / cplxblur=20.0 / qblur=0.5 / vbv_maxrate=50000 / vbv_bufsize=62500 / nal_hrd=none / ip_ratio=1.35 / pb_ratio=1.25 / aq=2:0.80
Язык : English
Аудио #1
Идентификатор : 2
Формат : AC-3
Формат/Информация : Audio Coding 3
Расширение режима : CM (complete main)
Идентификатор кодека : A_AC3
Продолжительность : 1 ч. 47 м.
Вид битрейта : Постоянный
Битрейт : 448 Кбит/сек
Каналы : 6 каналов
Расположение каналов : Front: L C R, Side: L R, LFE
Частота : 48,0 КГц
Битовая глубина : 16 бит
Метод сжатия : С потерями
Размер потока : 344 Мбайт (15%)
Заголовок : MVO | DD 5.1 @ 448 kbps
Язык : Russian
Аудио #2
Идентификатор : 3
Формат : AC-3
Формат/Информация : Audio Coding 3
Расширение режима : CM (complete main)
Идентификатор кодека : A_AC3
Продолжительность : 1 ч. 47 м.
Вид битрейта : Постоянный
Битрейт : 448 Кбит/сек
Каналы : 6 каналов
Расположение каналов : Front: L C R, Side: L R, LFE
Частота : 48,0 КГц
Битовая глубина : 16 бит
Метод сжатия : С потерями
Размер потока : 344 Мбайт (15%)
Заголовок : Original | DD 5.1 @ 448 kbps
Язык : English
Текст #1
Идентификатор : 4
Формат : UTF-8
Идентификатор кодека : S_TEXT/UTF8
Идентификатор кодека/Информация : UTF-8 Plain Text
Язык : Russian
Текст #2
Идентификатор : 5
Формат : UTF-8
Идентификатор кодека : S_TEXT/UTF8
Идентификатор кодека/Информация : UTF-8 Plain Text
Язык : English
Меню
00:00:00.000 : en:00:00:00.000
00:08:32.320 : en:00:08:32.320
00:20:37.800 : en:00:20:37.800
00:29:15.080 : en:00:29:15.080
00:40:17.520 : en:00:40:17.520
00:50:31.360 : en:00:50:31.360
00:59:57.000 : en:00:59:57.000
01:08:47.600 : en:01:08:47.600
01:19:54.640 : en:01:19:54.640
01:27:56.640 : en:01:27:56.640
01:35:10.680 : en:01:35:10.680
01:41:22.320 : en:01:41:22.320
Жанр: Боевики
Скачать торрент: Звездная карта / Maps to the Stars (Дэвид Кроненберг) [2014, драма, BDRip-AVC] MVO (11.51 Kb), скачали: 36
Сиды: 147 
Пиры: 12 
Общий размер: 2.18 Gb
SHA Hash: 712eb6002dab8dca983d39e0948a0109d4c57040
Zvyozdnaya.Karta.DUAL.BDRip.x264.-HELLYWOOD.mkv 2.18 Gb / (2342373069) bytes